Pages

terça-feira, 2 de abril de 2013

Comendo a linda e safada namorada Japonesa















Código:
General
Complete name : /disco2/asdfeuh2/public_html/rapidleech/files/Descargas-Directas/17721.flv
Format : Flash Video
File size : 50.6 MiB
Duration : 11mn 48s
Overall bit rate : 599 Kbps
Encoded date : Wed Feb 27 11:42:47 2013
Tagging application : On2 Flix Pro v8.546win
vervpxplugin : Codecs Version : 6.2.9.22

Video
Format : VP6
Codec ID : 4
Duration : 11mn 48s
Bit rate : 448 Kbps
Width : 600 pixels
Height : 450 pixels
Display aspect ratio : 4:3
Frame rate mode : Constant
Frame rate : 30.000 fps
Bit depth : 8 bits
Bits/(Pixel*Frame) : 0.055
Stream size : 37.8 MiB (75%)

Audio
Format : MPEG Audio
Format version : Version 2
Format profile : Layer 3
Mode : Joint stereo
Mode extension : MS Stereo
Codec ID : 2
Codec ID/Hint : MP3
Duration : 11mn 48s
Bit rate mode : Constant
Bit rate : 64.0 Kbps
Channel(s) : 2 channels
Sampling rate : 22.05 KHz
Compression mode : Lossy
Stream size : 5.40 MiB (11%)
Writing library : LAME3.96














Nenhum comentário:

Postar um comentário

Postar um comentário